The Batman (2021) Lossless 5.1 International Trailer


Home Forums User Uploaded Trailers The Batman (2021) Lossless 5.1 International Trailer

Viewing 1 post (of 1 total)
  • Author
    Posts
  • #6608

    IMDB

    THE BATMAN (2021) – DOWNLOAD HERE

    General
    Format : Matroska
    Format version : Version 4
    File size : 985 MiB
    Duration : 2 min 28 s
    Overall bit rate : 55.8 Mb/s

    Video
    Format : AVC
    Format/Info : Advanced Video Codec
    Duration : 2 min 28 s
    Bit rate : 47.3 Mb/s
    Nominal bit rate : 50.0 Mb/s
    Width : 1 920 pixels
    Height : 1 080 pixels
    Display aspect ratio : 16:9
    Frame rate mode : Constant
    Frame rate : 23.976 (24000/1001) FPS
    Color space : YUV
    Chroma subsampling : 4:2:0
    Bit depth : 8 bits
    Scan type : Progressive
    Bits/(Pixel*Frame) : 0.952
    Stream size : 835 MiB (85%)

    Audio #1
    Format : AC-3
    Format/Info : Audio Coding 3
    Commercial name : Dolby Digital
    Codec ID : A_AC3
    Duration : 2 min 28 s
    Bit rate mode : Constant
    Bit rate : 640 kb/s
    Channel(s) : 6 channels
    Channel layout : L R C LFE Ls Rs
    Sampling rate : 48.0 kHz
    Frame rate : 31.250 FPS (1536 SPF)
    Compression mode : Lossy

    Audio #2
    Format : E-AC-3
    Format/Info : Enhanced AC-3
    Commercial name : Dolby Digital Plus
    Codec ID : A_EAC3
    Duration : 2 min 28 s
    Bit rate mode : Constant
    Bit rate : 6 144 kb/s
    Channel(s) : 6 channels
    Channel layout : L R C LFE Ls Rs
    Sampling rate : 48.0 kHz
    Frame rate : 187.500 FPS (256 SPF)
    Compression mode : Lossy

    Audio #3
    Format : PCM
    Format settings : Little / Signed
    Codec ID : A_PCM/INT/LIT
    Duration : 2 min 28 s
    Bit rate mode : Constant
    Bit rate : 4 608 kb/s
    Channel(s) : 6 channels
    Sampling rate : 48.0 kHz
    Frame rate : 32.002 FPS (1500 SPF)
    Bit depth : 16 bits
    Stream size : 81.3 MiB (8%)
    Title : 5.1 Lossless PCM
    Language : English

Viewing 1 post (of 1 total)
  • You must be logged in to reply to this topic.