I Love Movies, IMAX Movies. (ProRes 422, 4096×2160, PCM 5.1 Upmix)


Home Forums User Uploaded Trailers I Love Movies, IMAX Movies. (ProRes 422, 4096×2160, PCM 5.1 Upmix)

Tagged: , ,

Viewing 1 post (of 1 total)
  • Author
    Posts
  • #7242
    Noah Fogarty
    Participant

    Download Here: https://mega.nz/file/OP5jySyB#vyHhilMlZREaftsE-y1k9X4DifeEHiD4lfN3GD5yBe4

    I Love Movies, IMAX Movies

    MediaInfo:

    General
    Unique ID : 278895543574876344870374630560580865318 (0xD1D153EF771FD6368526C9D76E458D26)
    Complete name : C:\Users\fnr49\Desktop\I Love Movies, IMAX Movies(ProRes 422, Rec. 709, 24 FPS, 4096×2160, 1.90-1, 251 Mbps) (PCM 5.1 Upmix, PCM 2.0) .mkv
    Format : Matroska
    Format version : Version 4
    File size : 1.82 GiB
    Duration : 1 min 0 s
    Overall bit rate : 261 Mb/s
    Encoded date : UTC 2021-02-17 04:52:06
    Writing application : mkvmerge v53.0.0 (‘Fool’s Gold’) 64-bit
    Writing library : libebml v1.4.1 + libmatroska v1.6.2

    Video
    ID : 1
    Format : ProRes
    Codec ID : V_PRORES
    Duration : 1 min 0 s
    Bit rate : 251 Mb/s
    Width : 4 096 pixels
    Height : 2 160 pixels
    Display aspect ratio : 1.896
    Frame rate mode : Constant
    Frame rate : 24.000 FPS
    Bits/(Pixel*Frame) : 1.184
    Stream size : 1.76 GiB (96%)
    Title : ProRes 422, Rec. 709, 24 FPS, 4096×2160, 1.90:1, 251 Mbps
    Language : English
    Default : Yes
    Forced : No

    Audio #1
    ID : 2
    Format : PCM
    Format settings : Little / Signed
    Codec ID : A_PCM/INT/LIT
    Duration : 1 min 0 s
    Bit rate mode : Constant
    Bit rate : 6 912 kb/s
    Channel(s) : 6 channels
    Sampling rate : 48.0 kHz
    Frame rate : 32.000 FPS (1500 SPF)
    Bit depth : 24 bits
    Stream size : 49.4 MiB (3%)
    Title : PCM 5.1 (Upmixed From Original Stereo Track)
    Language : English
    Default : Yes
    Forced : No

    Audio #2
    ID : 3
    Format : PCM
    Format settings : Little / Signed
    Codec ID : A_PCM/INT/LIT
    Duration : 1 min 0 s
    Bit rate mode : Constant
    Bit rate : 2 304 kb/s
    Channel(s) : 2 channels
    Sampling rate : 48.0 kHz
    Frame rate : 32.000 FPS (1500 SPF)
    Bit depth : 24 bits
    Stream size : 16.5 MiB (1%)
    Title : PCM 2.0 (Original Stereo Track)
    Language : English
    Default : No
    Forced : No

Viewing 1 post (of 1 total)
  • You must be logged in to reply to this topic.