THX Certification – The gold standard in entertainment experiences


Home Forums User Uploaded Trailers THX Certification – The gold standard in entertainment experiences

Viewing 1 post (of 1 total)
  • Author
    Posts
  • #7605
    Noah Fogarty
    Participant

    This is the THX Certification “The gold standard in entertainment experiences” trailer in high bitrate ProRes in 4K with an official 5.1 mix.

    Download Link (MEGA): https://mega.nz/file/8eAwwToZ#iAfu-qpP00huK1GG9ufzDMiTxFT_fPcFCnCK4JK_gL8
    Screenshot(IMGBB): https://ibb.co/mDSR6d6

    Mediainfo:

    General:
    Format : Matroska
    Format version : Version 4
    File size : 3.79 GiB
    Duration : 1 min 28 s
    Overall bit rate : 366 Mb/s
    Encoded date : UTC 2021-06-05 17:13:52
    Writing application : mkvmerge v57.0.0 (‘Till The End’) 64-bit
    Writing library : libebml v1.4.2 + libmatroska v1.6.4

    Video:

    ID : 1
    Format : ProRes
    Codec ID : V_PRORES
    Duration : 1 min 28 s
    Bit rate : 361 Mb/s
    Width : 3 840 pixels
    Height : 2 160 pixels
    Display aspect ratio : 16:9
    Frame rate mode : Constant
    Frame rate : 23.976 FPS
    Bits/(Pixel*Frame) : 1.817
    Stream size : 3.74 GiB (99%)
    Title : ProRes 422 HQ, 10-Bit, 3840×2160, 23.976FPS, 361Mbps, 16:9
    Language : English
    Default : Yes
    Forced : No

    Audio:

    ID : 2
    Format : PCM
    Format settings : Little / Signed
    Codec ID : A_PCM/INT/LIT
    Duration : 1 min 28 s
    Bit rate mode : Constant
    Bit rate : 4 608 kb/s
    Channel(s) : 6 channels
    Sampling rate : 48.0 kHz
    Frame rate : 25.011 FPS (1919 SPF)
    Bit depth : 16 bits
    Stream size : 48.8 MiB (1%)
    Title : PCM 5.1 Official Mix, 16-Bit, 48KHz, 4608Kbps
    Default : Yes
    Forced : No

Viewing 1 post (of 1 total)
  • You must be logged in to reply to this topic.