Wonder Woman 1984 (2020) – 5.1 Lossless Trailer


Home Forums User Uploaded Trailers Wonder Woman 1984 (2020) – 5.1 Lossless Trailer

Viewing 1 post (of 1 total)
  • Author
    Posts
  • #6610

    VIEW ON IMDB

    WONDER WOMEN 1984 (2020) – DOWNLOAD HERE

    Video
    ID : 1
    Format : AVC
    Format/Info : Advanced Video Codec
    Format profile : Baseline@L4.2
    Codec ID : V_MPEG4/ISO/AVC
    Duration : 2 min 27 s
    Bit rate : 47.2 Mb/s
    Nominal bit rate : 50.0 Mb/s
    Width : 1 920 pixels
    Height : 1 080 pixels
    Display aspect ratio : 16:9
    Frame rate mode : Constant
    Frame rate : 23.976 (24000/1001) FPS
    Color space : YUV
    Chroma subsampling : 4:2:0
    Bit depth : 8 bits
    Scan type : Progressive

    Audio #1
    ID : 2
    Format : AC-3
    Format/Info : Audio Coding 3
    Commercial name : Dolby Digital
    Codec ID : A_AC3
    Duration : 2 min 27 s
    Bit rate mode : Constant
    Bit rate : 640 kb/s
    Channel(s) : 6 channels
    Channel layout : L R C LFE Ls Rs
    Sampling rate : 48.0 kHz
    Frame rate : 31.250 FPS (1536 SPF)
    Compression mode : Lossy
    Delay relative to video : -5 ms
    Stream size : 11.3 MiB (1%)
    Title : 5.1 Dolby Digital
    Language : English
    Service kind : Complete Main

    Audio #2
    ID : 3
    Format : E-AC-3
    Format/Info : Enhanced AC-3
    Commercial name : Dolby Digital Plus
    Codec ID : A_EAC3
    Duration : 2 min 27 s
    Bit rate mode : Constant
    Bit rate : 6 144 kb/s
    Channel(s) : 6 channels
    Channel layout : L R C LFE Ls Rs
    Sampling rate : 48.0 kHz
    Frame rate : 187.500 FPS (256 SPF)
    Compression mode : Lossy
    Delay relative to video : -5 ms
    Stream size : 108 MiB (10%)
    Title : 5.1 Dolby Digital Plus
    Language : English
    Service kind : Complete Main

    Audio #3
    ID : 4
    Format : PCM
    Format settings : Little / Signed
    Codec ID : A_PCM/INT/LIT
    Duration : 2 min 27 s
    Bit rate mode : Constant
    Bit rate : 4 608 kb/s
    Channel(s) : 6 channels
    Sampling rate : 48.0 kHz
    Frame rate : 32.004 FPS (1500 SPF)
    Bit depth : 16 bits
    Delay relative to video : -5 ms
    Stream size : 81.2 MiB (8%)
    Title : 5.1 Lossless PCM
    Language : English

Viewing 1 post (of 1 total)
  • You must be logged in to reply to this topic.