THX: Genesis Deep Note Trailer DTS-HD MA 7.1 Upmix 4K

Home Forums User Uploaded Trailers THX: Genesis Deep Note Trailer DTS-HD MA 7.1 Upmix 4K

Tagged: 

Viewing 1 post (of 1 total)
  • Author
    Posts
  • #11467
    jonnyx37
    Participant

    Hi everyone,

    Some days ago I discovered a new version of the THX Genesis Trailer,but with the original stereo mix, not the binaural one you can find on Youtube. I created a 7.1 DTS-HD MA upmix from both the original stereo and binaural stereo tracks, Im quite satisfied with the result. The video is the official 4K version, sourced from the ProRes File. Enjoy!

    THX: Genesis Deep Note Trailer DTS-HD MA 7.1 Upmix 4K

    Video
    ID : 1
    Format : HEVC
    Format/Info : High Efficiency Video Coding
    Format profile : Main@L5@Main
    Codec ID : V_MPEGH/ISO/HEVC
    Duration : 1 min 5 s
    Bit rate : 20.2 Mb/s
    Width : 3 840 pixels
    Height : 2 160 pixels
    Display aspect ratio : 16:9
    Frame rate mode : Constant
    Frame rate : 24.000 FPS
    Color space : YUV
    Chroma subsampling : 4:2:0
    Bit depth : 8 bits
    Bits/(Pixel*Frame) : 0.101
    Stream size : 158 MiB (84%)
    Default : Yes
    Forced : No
    Color range : Limited
    Color primaries : BT.709
    Matrix coefficients : BT.709

    Audio
    ID : 2
    Format : DTS XLL
    Format/Info : Digital Theater Systems
    Commercial name : DTS-HD Master Audio
    Codec ID : A_DTS
    Duration : 1 min 5 s
    Bit rate mode : Variable
    Bit rate : 3 952 kb/s
    Channel(s) : 8 channels
    Channel layout : C L R LFE Lb Rb Lss Rss
    Sampling rate : 48.0 kHz
    Frame rate : 93.750 FPS (512 SPF)
    Bit depth : 16 bits
    Compression mode : Lossless
    Stream size : 31.0 MiB (16%)
    Default : Yes
    Forced : No

    • This topic was modified 11 months, 2 weeks ago by jonnyx37.
    • This topic was modified 11 months, 2 weeks ago by jonnyx37.
    • This topic was modified 11 months, 2 weeks ago by jonnyx37.
    • This topic was modified 11 months, 2 weeks ago by jonnyx37.
    • This topic was modified 11 months, 2 weeks ago by jonnyx37.
Viewing 1 post (of 1 total)
  • You must be logged in to reply to this topic.