News of the World (2020) – Domestic Trailer 5.1 Lossless


Home Forums User Uploaded Trailers News of the World (2020) – Domestic Trailer 5.1 Lossless

Viewing 1 post (of 1 total)
  • Author
    Posts
  • #6857

    IF YOU HAVE ANY PROBLEMS WITH MY FILES OR REQUEST. PLEASE CONTACT ME AT BEARLASERTRAILERS@GMAIL.COM

    VIEW ON IMDB

    DOWNLOAD “NEWS OF THE WORLD” OFFICIAL TRAILER HERE

    Format : Matroska
    Format version : Version 4
    File size : 1.28 GiB
    Duration : 2 min 55 s
    Overall bit rate : 62.8 Mb/s
    Encoded date : UTC 2020-10-23 01:40:14
    Writing application : mkvmerge v49.0.0 (‘Sick Of Losing Soulmates’) 64-bit
    Writing library : libebml v1.4.0 + libmatroska v1.6.1 / Lavf58.29.100

    Video
    ID : 1
    Format : AVC
    Format/Info : Advanced Video Codec
    Format profile : Baseline@L4.2
    Format settings : 1 Ref Frames
    Format settings, CABAC : No
    Format settings, Reference frames : 1 frame
    Codec ID : V_MPEG4/ISO/AVC
    Duration : 2 min 55 s
    Bit rate : 46.8 Mb/s
    Nominal bit rate : 50.0 Mb/s
    Width : 1 920 pixels
    Height : 1 080 pixels
    Display aspect ratio : 16:9
    Frame rate mode : Constant
    Frame rate : 23.976 (24000/1001) FPS
    Color space : YUV
    Chroma subsampling : 4:2:0
    Bit depth : 8 bits
    Scan type : Progressive
    Bits/(Pixel*Frame) : 0.940
    Stream size : 977 MiB (74%)
    Default : Yes
    Forced : No
    Color range : Limited
    Color primaries : BT.709
    Transfer characteristics : BT.709
    Matrix coefficients : BT.709

    Audio #1
    ID : 2
    Format : AC-3
    Format/Info : Audio Coding 3
    Commercial name : Dolby Digital
    Codec ID : A_AC3
    Duration : 2 min 55 s
    Bit rate mode : Constant
    Bit rate : 640 kb/s
    Channel(s) : 6 channels
    Channel layout : L R C LFE Ls Rs
    Sampling rate : 48.0 kHz
    Frame rate : 31.250 FPS (1536 SPF)
    Compression mode : Lossy
    Delay relative to video : -5 ms
    Stream size : 13.4 MiB (1%)
    Title : 5.1 Dolby Digital
    Language : English
    Service kind : Complete Main
    Default : Yes
    Forced : No

    Audio #2
    ID : 3
    Format : E-AC-3
    Format/Info : Enhanced AC-3
    Commercial name : Dolby Digital Plus
    Codec ID : A_EAC3
    Duration : 2 min 55 s
    Bit rate mode : Constant
    Bit rate : 6 144 kb/s
    Channel(s) : 6 channels
    Channel layout : L R C LFE Ls Rs
    Sampling rate : 48.0 kHz
    Frame rate : 187.500 FPS (256 SPF)
    Compression mode : Lossy
    Delay relative to video : -5 ms
    Stream size : 128 MiB (10%)
    Title : 5.1 Dolby Digital Plus
    Language : English
    Service kind : Complete Main
    Default : No
    Forced : No

    Audio #3
    ID : 4
    Format : PCM
    Format settings : Little / Signed
    Codec ID : A_PCM/INT/LIT
    Duration : 2 min 55 s
    Bit rate mode : Constant
    Bit rate : 9 216 kb/s
    Channel(s) : 6 channels
    Sampling rate : 48.0 kHz
    Frame rate : 32.000 FPS (1500 SPF)
    Bit depth : 32 bits
    Delay relative to video : -5 ms
    Stream size : 192 MiB (15%)
    Title : 5.1 PCM
    Language : English
    Default : No
    Forced : No

Viewing 1 post (of 1 total)
  • You must be logged in to reply to this topic.